downloads

V.A. – The Dawn of a New Age 4CD Box Set (1999)

Exact Audio Copy V1.0 beta 3 from 29. August 2011EAC extraction logfile from 16. January 2015, 20:47Various Artists / The Dawn of a New Age (Disc 2of4)Used drive : ATAPI iHAS120 X Adapter: 3 ID: 0Read mode : SecureUtilize accurate stream : YesDefeat audio cache : YesMake use of C2 pointers : NoRead offset correction : 48Overread into Lead-In and Lead-Out : NoFill up missing offset samples with silence : YesDelete leading and trailing silent blocks : NoNull samples used in CRC calculations : YesUsed interface : Native Win32 interface for Win NT & 2000Gap handling : Appended to previous trackUsed output format : User Defined EncoderSelected bitrate : 128 kBit/sQuality : HighAdd ID3 tag : NoCommand line compressor : C:Program Files (x86)Exact Audio CopyFlacflac.exeAdditional command line options : -8 -V -T “ARTIST=%artist%” -T “TITLE=” -T “ALBUM=%albumtitle%” -T “DATE=%year%” -T “TRACKNUMBER=%tracknr%” -T “TOTALTRACKS=%numtracks%” -T “GENRE=%genre%” -T “ALBUMARTIST=%albumartist%” -T “ALBUM ARTIST=%albumartist%” -T “COMMENT=EAC Secure Mode, Test & Copy, AccurateRip, FLAC -8” AvaxHomeTOC of the extracted CDTrack | Start | Length | Start sector | End sector ––––––––––––––––––––––––––––-1 | 0:00.00 | 8:56.67 | 0 | 40266 2 | 8:56.67 | 3:58.23 | 40267 | 58139 3 | 12:55.15 | 7:10.15 | 58140 | 90404 4 | 20:05.30 | 7:11.07 | 90405 | 122736 5 | 27:16.37 | 7:09.58 | 122737 | 154969 6 | 34:26.20 | 8:40.65 | 154970 | 194034 7 | 43:07.10 | 4:25.02 | 194035 | 213911 8 | 47:32.12 | 6:30.00 | 213912 | 243161 9 | 54:02.12 | 7:06.48 | 243162 | 275159 10 | 61:08.60 | 11:09.65 | 275160 | 325399 Track 1Filename D:The Dawn of a New Age (Disc 2of4)1 – Alien Mutation – Sea of Tranquility.wavPre-gap length 0:00:02.00Peak level 96.0 %Extraction speed 3.0 XTrack quality 100.0 %Test CRC D346A869Copy CRC D346A869Track not present in AccurateRip databaseCopy OKTrack 2Filename D:The Dawn of a New Age (Disc 2of4)2 – Wadaba – The Green Man.wavPeak level 80.7 %Extraction speed 3.1 XTrack quality 100.0 %Test CRC EF08E215Copy CRC EF08E215Track not present in AccurateRip databaseCopy OKTrack 3Filename D:The Dawn of a New Age (Disc 2of4)3 – Crystal Moon – Temple.wavPeak level 93.6 %Extraction speed 3.6 XTrack quality 100.0 %Test CRC C7927306Copy CRC C7927306Track not present in AccurateRip databaseCopy OKTrack 4Filename D:The Dawn of a New Age (Disc 2of4)4 – Curly Whirly Spirits – Tibetan Chant of Purity.wavPeak level 99.1 %Extraction speed 4.0 XTrack quality 100.0 %Test CRC 1D4F9FDACopy CRC 1D4F9FDATrack not present in AccurateRip databaseCopy OKTrack 5Filename D:The Dawn of a New Age (Disc 2of4)5 – The Dolphines – Indian Paradise.wavPeak level 100.0 %Extraction speed 4.3 XTrack quality 100.0 %Test CRC 2EBF2F8DCopy CRC 2EBF2F8DTrack not present in AccurateRip databaseCopy OKTrack 6Filename D:The Dawn of a New Age (Disc 2of4)6 – Crystal Keys – Enlightenment.wavPeak level 100.0 %Extraction speed 4.4 XTrack quality 99.9 %Test CRC 1C17777DCopy CRC 1C17777DTrack not present in AccurateRip databaseCopy OKTrack 7Filename D:The Dawn of a New Age (Disc 2of4)7 – Crystal Moon – Cloud.wavPeak level 92.3 %Extraction speed 4.7 XTrack quality 100.0 %Test CRC CB23B417Copy CRC CB23B417Track not present in AccurateRip databaseCopy OKTrack 8Filename D:The Dawn of a New Age (Disc 2of4)8 – Gondwana – Ananda.wavPeak level 100.0 %Extraction speed 5.1 XTrack quality 100.0 %Test CRC C2D6C796Copy CRC C2D6C796Track not present in AccurateRip databaseCopy OKTrack 9Filename D:The Dawn of a New Age (Disc 2of4)9 – Twilight Pilot – The Garden of Angel Adonis.wavPeak level 98.0 %Extraction speed 5.3 XTrack quality 100.0 %Test CRC 515FB3C0Copy CRC 515FB3C0Track not present in AccurateRip databaseCopy OKTrack 10Filename D:The Dawn of a New Age (Disc 2of4)10 – Crystal Moon – Silent Pool.wavPeak level 93.6 %Extraction speed 5.8 XTrack quality 100.0 %Test CRC 6401B033Copy CRC 6401B033Track not present in AccurateRip databaseCopy OKNone of the tracks are present in the AccurateRip databaseNo errors occurredEnd of status report==== Log checksum CBBA0005A99A534885A88D6C3F90F7C8E3FEF42B1E81E04DC9EEC14497784311 ====

Here is the original: 
V.A. – The Dawn of a New Age 4CD Box Set (1999)