downloads

The Heavy – Hurt & the Merciless (2016) TR24OF

The Heavy – Hurt & the MercilessRock, Soul, Funk | FLAC (tracks) 24-bit/44.1 kHz | 43:59 min | 548 MB | Front CoverLabel: Bad Son Recording Company | Tracks: 12 | Rls.date: 2016Hurt & The Merciless marks a musical culmination for The Heavy, a mesmerizing blend of their trademark rock’n’roll classicism and funk and soul grooves, with added sonic experimentation. Self-produced, the band’s main aim when recording was to capture the powerful energy of their live show—that life-affirming spark of rock’n’roll when anything feels possible. The 12 track album features lead single “Since You Been Gone,” with its lolloping groove, plus the spiky garage-rock anthem “What Happened To The Love?” and is their strongest batch of songs to date.TRACKLIST1. Since You’ve Been Gone2. What Happened To The Love?3. Not The One4. The Apology5. Nobody’s Hero6. Miss California7. Turn Up8. A Ghost You Can’t Forget9. Last Confession10. Mean Ol’ Man11. Slave To Your Love12. Goodbye Baby

foobar2000 1.3.13 / Dynamic Range Meter 1.1.1log date: 2016-12-01 09:33:48––––––––––––––––––––––––––––––––––––––––Analyzed: The Heavy / Hurt & the Merciless––––––––––––––––––––––––––––––––––––––––DR Peak RMS Duration Track––––––––––––––––––––––––––––––––––––––––DR4 -0.02 dB -5.11 dB 3:09 01-Since You Been GoneDR4 -0.02 dB -5.78 dB 3:15 02-What Happened To the Love?DR4 -0.02 dB -5.35 dB 3:52 03-Not the OneDR4 -0.02 dB -5.64 dB 3:17 04-The ApologyDR4 -0.02 dB -5.77 dB 3:57 05-Nobody’s HeroDR4 -0.02 dB -4.90 dB 4:36 06-Miss CaliforniaDR4 -0.02 dB -5.64 dB 3:27 07-Turn UpDR4 -0.02 dB -5.23 dB 3:23 08-A Ghost You Can’t ForgetDR4 -0.02 dB -4.93 dB 4:38 09-Last ConfessionDR4 -0.02 dB -5.62 dB 3:56 10-Mean Ol’ ManDR3 -0.02 dB -5.00 dB 2:59 11-Slave To Your LoveDR4 -0.02 dB -6.71 dB 3:34 12-Goodbye Baby––––––––––––––––––––––––––––––––––––––––Number of tracks: 12Official DR value: DR4Samplerate: 44100 HzChannels: 2Bits per sample: 24Bitrate: 1603 kbpsCodec: FLAC================================================================================

Thanks to the Original customer.

See more here:
The Heavy – Hurt & the Merciless (2016) TR24OF