downloads

The Crusaders – Chain Reaction (1975)

Exact Audio Copy V1.1 from 23. June 2015EAC extraction logfile from 4. March 2016, 17:29The Crusaders / Chain ReactionUsed drive : HL-DT-STDVDRAM GH24NSB0 Adapter: 1 ID: 0Read mode : SecureUtilize accurate stream : YesDefeat audio cache : YesMake use of C2 pointers : NoRead offset correction : 6Overread into Lead-In and Lead-Out : NoFill up missing offset samples with silence : YesDelete leading and trailing silent blocks : NoNull samples used in CRC calculations : YesUsed interface : Native Win32 interface for Win NT & 2000Gap handling : Appended to previous trackUsed output format : User Defined EncoderSelected bitrate : 1024 kBit/sQuality : HighAdd ID3 tag : NoCommand line compressor : C:Program Files (x86)Exact Audio CopyFLACFLAC.EXEAdditional command line options : -V -8 -T “ARTIST=%artist%” -T “TITLE=” -T “ALBUM=%albumtitle%” -T “DATE=%year%” -T “TRACKNUMBER=%tracknr%” -T “GENRE=%genre%” -T “COMMENT=ripped by Musicgate” AvaxHome -o %dest%TOC of the extracted CDTrack | Start | Length | Start sector | End sector ––––––––––––––––––––––––––––-1 | 0:00.00 | 3:27.25 | 0 | 15549 2 | 3:27.25 | 5:39.00 | 15550 | 40974 3 | 9:06.25 | 2:30.45 | 40975 | 52269 4 | 11:36.70 | 2:45.55 | 52270 | 64699 5 | 14:22.50 | 6:15.45 | 64700 | 92869 6 | 20:38.20 | 5:09.42 | 92870 | 116086 7 | 25:47.62 | 2:57.25 | 116087 | 129386 8 | 28:45.12 | 3:48.13 | 129387 | 146499 9 | 32:33.25 | 2:33.22 | 146500 | 157996 10 | 35:06.47 | 5:29.33 | 157997 | 182704 Track 1Filename D:MusicgateCrusaders – Chain Reaction – 1975 (1997 MCA MCAD-1648)1 – Creole.wavPre-gap length 0:00:02.00Peak level 71.0 %Extraction speed 1.1 XTrack quality 100.0 %Test CRC 576A8F72Copy CRC 576A8F72Accurately ripped (confidence 11) 24EB4AEB (AR v2)Copy OKTrack 2Filename D:MusicgateCrusaders – Chain Reaction – 1975 (1997 MCA MCAD-1648)2 – Chain Reaction.wavPre-gap length 0:00:01.73Peak level 83.5 %Extraction speed 1.2 XTrack quality 99.9 %Test CRC 388F3587Copy CRC 388F3587Accurately ripped (confidence 11) 9A9D2D52 (AR v2)Copy OKTrack 3Filename D:MusicgateCrusaders – Chain Reaction – 1975 (1997 MCA MCAD-1648)3 – I Felt the Love.wavPre-gap length 0:00:04.36Peak level 63.7 %Extraction speed 1.3 XTrack quality 100.0 %Test CRC 9CC5B3D8Copy CRC 9CC5B3D8Accurately ripped (confidence 11) 99B64212 (AR v2)Copy OKTrack 4Filename D:MusicgateCrusaders – Chain Reaction – 1975 (1997 MCA MCAD-1648)4 – Mellow Out.wavPre-gap length 0:00:02.00Peak level 81.3 %Extraction speed 1.4 XTrack quality 100.0 %Test CRC B2E881D3Copy CRC B2E881D3Accurately ripped (confidence 11) 0A990B9E (AR v2)Copy OKTrack 5Filename D:MusicgateCrusaders – Chain Reaction – 1975 (1997 MCA MCAD-1648)5 – Rainbow Visions.wavPre-gap length 0:00:02.65Peak level 68.6 %Extraction speed 1.6 XTrack quality 100.0 %Test CRC FAB3DE17Copy CRC FAB3DE17Accurately ripped (confidence 11) F5D6E72F (AR v2)Copy OKTrack 6Filename D:MusicgateCrusaders – Chain Reaction – 1975 (1997 MCA MCAD-1648)6 – Hallucinate.wavPre-gap length 0:00:03.10Peak level 69.5 %Extraction speed 1.7 XTrack quality 100.0 %Test CRC 07A59480Copy CRC 07A59480Accurately ripped (confidence 11) 0EA73BAC (AR v2)Copy OKTrack 7Filename D:MusicgateCrusaders – Chain Reaction – 1975 (1997 MCA MCAD-1648)7 – Give It Up.wavPre-gap length 0:00:01.05Peak level 85.5 %Extraction speed 1.7 XTrack quality 100.0 %Test CRC E86F4387Copy CRC E86F4387Accurately ripped (confidence 11) 1B0CB8EA (AR v2)Copy OKTrack 8Filename D:MusicgateCrusaders – Chain Reaction – 1975 (1997 MCA MCAD-1648)8 – Hot’s It.wavPre-gap length 0:00:01.57Peak level 76.2 %Extraction speed 1.8 XTrack quality 100.0 %Test CRC 44966629Copy CRC 44966629Accurately ripped (confidence 11) 13E5FF4A (AR v2)Copy OKTrack 9Filename D:MusicgateCrusaders – Chain Reaction – 1975 (1997 MCA MCAD-1648)9 – Sugar Cane.wavPre-gap length 0:00:03.18Peak level 75.6 %Extraction speed 1.7 XTrack quality 100.0 %Test CRC 3812C48DCopy CRC 3812C48DAccurately ripped (confidence 11) D91EA5AA (AR v2)Copy OKTrack 10Filename D:MusicgateCrusaders – Chain Reaction – 1975 (1997 MCA MCAD-1648)10 – Soul Caravan.wavPre-gap length 0:00:02.20Peak level 86.0 %Extraction speed 2.0 XTrack quality 100.0 %Test CRC CCB2E1B4Copy CRC CCB2E1B4Accurately ripped (confidence 10) ADC24475 (AR v2)Copy OKAll tracks accurately rippedNo errors occurredEnd of status report==== Log checksum 86A84A537E1BCB0127197865062CB81B1215D343F27FFD2D11D1CBDEB7F62E31 ====

Continued here:
The Crusaders – Chain Reaction (1975)