downloads

Sorority Party Massacre (2012)

Sorority Party Massacre (2012)BDRip | MKV | AVC, 9080 Kbps | 1920×1080 | 23.976 fps | 7.65 GB | Runtime: 103 MinAudio : English DTS 1509 Kbps | 6 channels | 48 KHz | Subtitle : NoneGenre : Comedy | HorrorSexy college girls endure gore galore when a psychotic killer with a taste for sorority sister torture arrives. But when this party gets started, will they receive an advanced degree in extreme horror? stars Leslie Easterbrook (THE DEVIL’S REJECTS), adult-film legend Ron Jeremy, and new scream queens Marissa Skell, Eve Mauro, and Yvette Yates in this wild, hotter-than-hell horror comedy.IMDB

VideoID : 1Format : AVCFormat/Info : Advanced Video CodecFormat profile : High@L4.1Format settings, CABAC : YesFormat settings, ReFrames : 4 framesCodec ID : V_MPEG4/ISO/AVCDuration : 1h 43mnBit rate : 9 080 KbpsWidth : 1 920 pixelsHeight : 1 080 pixelsDisplay aspect ratio : 16:9Frame rate mode : ConstantFrame rate : 23.976 (24000/1001) fpsColor space : YUVChroma subsampling : 4:2:0Bit depth : 8 bitsScan type : ProgressiveBits/(Pixel*Frame) : 0.183Stream size : 6.41 GiB (84%)Writing library : x264 core 130 r2273 b3065e6Encoding settings : cabac=1 / ref=4 / deblock=1:0:0 / analyse=0x3:0x133 / me=umh / subme=7 / psy=1 / psy_rd=1.00:0.00 / mixed_ref=1 / me_range=16 / chroma_me=1 / trellis=1 / 8x8dct=1 / cqm=0 / deadzone=21,11 / fast_pskip=0 / chroma_qp_offset=-2 / threads=6 / lookahead_threads=1 / sliced_threads=0 / nr=0 / decimate=1 / interlaced=0 / bluray_compat=0 / constrained_intra=0 / bframes=3 / b_pyramid=2 / b_adapt=1 / b_bias=0 / direct=1 / weightb=1 / open_gop=0 / weightp=2 / keyint=240 / keyint_min=23 / scenecut=40 / intra_refresh=0 / rc_lookahead=40 / rc=2pass / mbtree=1 / bitrate=9080 / ratetol=1.0 / qcomp=0.60 / qpmin=10 / qpmax=69 / qpstep=4 / cplxblur=20.0 / qblur=0.5 / ip_ratio=1.40 / aq=1:1.00Language : EnglishDefault : YesForced : NoAudioID : 2Format : DTSFormat/Info : Digital Theater SystemsMode : 16Format settings, Endianness : BigCodec ID : A_DTSDuration : 1h 43mnBit rate mode : ConstantBit rate : 1 509 KbpsChannel(s) : 6 channelsChannel positions : Front: L C R, Side: L R, LFESampling rate : 48.0 KHzFrame rate : 93.750 fps (512 spf)Bit depth : 16 bitsCompression mode : LossyStream size : 1.09 GiB (14%)Language : EnglishDefault : YesForced : No

More: 
Sorority Party Massacre (2012)