downloads

Muddy Waters – Muddy, Brass And The Blues (1966) + Can’t Get No Grindin’ (1973) 2 LP in 1 CD, Remastered 2011 Re-Up

Exact Audio Copy V1.0 beta 3 from 29. August 2011EAC extraction logfile from 20. August 2014, 0:37Muddy Waters / Muddy, Brass And The Blues / Can’t Get No Grindin’Used drive : ASUS DRW-24F1ST a Adapter: 0 ID: 0Read mode : SecureUtilize accurate stream : YesDefeat audio cache : YesMake use of C2 pointers : NoRead offset correction : 6Overread into Lead-In and Lead-Out : YesFill up missing offset samples with silence : YesDelete leading and trailing silent blocks : NoNull samples used in CRC calculations : YesUsed interface : Native Win32 interface for Win NT & 2000Gap handling : Appended to previous trackUsed output format : User Defined EncoderSelected bitrate : 1024 kBit/sQuality : HighAdd ID3 tag : NoCommand line compressor : C:Program Files (x86)Exact Audio Copy v1.0Flacflac.exeAdditional command line options : -V -8 -T “Date=%year%” -T “Genre=%genre%” AvaxHomeTOC of the extracted CDTrack | Start | Length | Start sector | End sector ––––––––––––––––––––––––––––-1 | 0:00.00 | 3:40.70 | 0 | 16569 2 | 3:40.70 | 3:13.64 | 16570 | 31108 3 | 6:54.59 | 3:18.66 | 31109 | 46024 4 | 10:13.50 | 2:54.36 | 46025 | 59110 5 | 13:08.11 | 2:43.00 | 59111 | 71335 6 | 15:51.11 | 3:02.74 | 71336 | 85059 7 | 18:54.10 | 3:31.11 | 85060 | 100895 8 | 22:25.21 | 2:53.18 | 100896 | 113888 9 | 25:18.39 | 2:24.54 | 113889 | 124742 10 | 27:43.18 | 3:09.35 | 124743 | 138952 11 | 30:52.53 | 2:47.69 | 138953 | 151546 12 | 33:40.47 | 4:58.09 | 151547 | 173905 13 | 38:38.56 | 2:55.04 | 173906 | 187034 14 | 41:33.60 | 4:17.20 | 187035 | 206329 15 | 45:51.05 | 3:16.25 | 206330 | 221054 16 | 49:07.30 | 4:07.55 | 221055 | 239634 17 | 53:15.10 | 2:41.32 | 239635 | 251741 18 | 55:56.42 | 3:52.26 | 251742 | 269167 19 | 59:48.68 | 4:37.35 | 269168 | 289977 20 | 64:26.28 | 2:20.18 | 289978 | 300495 Track 1Filename D:TorrentsMuddy Waters – Muddy, Brass And The Blues; Can’t Get No Grindin’ 20111. Corine, Corina.wavPre-gap length 0:00:02.00Peak level 100.0 %Extraction speed 1.8 XTrack quality 100.0 %Test CRC DAB06CBCCopy CRC DAB06CBCAccurately ripped (confidence 2) D3048C5E (AR v2)Copy OKTrack 2Filename D:TorrentsMuddy Waters – Muddy, Brass And The Blues; Can’t Get No Grindin’ 20112. Piney Brown Blues.wavPre-gap length 0:00:02.06Peak level 100.0 %Extraction speed 1.7 XTrack quality 99.9 %Test CRC 6F698177Copy CRC 6F698177Accurately ripped (confidence 2) C02337C4 (AR v2)Copy OKTrack 3Filename D:TorrentsMuddy Waters – Muddy, Brass And The Blues; Can’t Get No Grindin’ 20113. Black Night.wavPre-gap length 0:00:02.39Peak level 100.0 %Extraction speed 1.8 XTrack quality 99.9 %Test CRC 917F32E5Copy CRC 917F32E5Accurately ripped (confidence 2) 1F805AEA (AR v2)Copy OKTrack 4Filename D:TorrentsMuddy Waters – Muddy, Brass And The Blues; Can’t Get No Grindin’ 20114. Trouble In Mind.wavPre-gap length 0:00:02.06Peak level 100.0 %Extraction speed 2.2 XTrack quality 100.0 %Test CRC 797CEFBDCopy CRC 797CEFBDAccurately ripped (confidence 2) F0ADE5CA (AR v2)Copy OKTrack 5Filename D:TorrentsMuddy Waters – Muddy, Brass And The Blues; Can’t Get No Grindin’ 20115. Going Back To Memphis.wavPre-gap length 0:00:02.09Peak level 93.3 %Extraction speed 1.8 XTrack quality 99.9 %Test CRC 1F4B7C3FCopy CRC 1F4B7C3FAccurately ripped (confidence 2) EEFB792A (AR v2)Copy OKTrack 6Filename D:TorrentsMuddy Waters – Muddy, Brass And The Blues; Can’t Get No Grindin’ 20116. Betty And Dupree.wavPre-gap length 0:00:02.52Peak level 100.0 %Extraction speed 2.4 XTrack quality 100.0 %Test CRC 4A42B826Copy CRC 4A42B826Accurately ripped (confidence 2) 90C3D8B6 (AR v2)Copy OKTrack 7Filename D:TorrentsMuddy Waters – Muddy, Brass And The Blues; Can’t Get No Grindin’ 20117. Sweet Little Angel.wavPre-gap length 0:00:02.18Peak level 100.0 %Extraction speed 2.1 XTrack quality 99.9 %Test CRC 1E142151Copy CRC 1E142151Accurately ripped (confidence 2) FC4317D5 (AR v2)Copy OKTrack 8Filename D:TorrentsMuddy Waters – Muddy, Brass And The Blues; Can’t Get No Grindin’ 20118. Take My Advice.wavPre-gap length 0:00:02.28Peak level 93.3 %Extraction speed 2.6 XTrack quality 100.0 %Test CRC 5564EA97Copy CRC 5564EA97Accurately ripped (confidence 2) 47E0FD28 (AR v2)Copy OKTrack 9Filename D:TorrentsMuddy Waters – Muddy, Brass And The Blues; Can’t Get No Grindin’ 20119. Trouble.wavPre-gap length 0:00:02.17Peak level 100.0 %Extraction speed 1.9 XTrack quality 99.9 %Test CRC 184E30D5Copy CRC 184E30D5Accurately ripped (confidence 2) 5133C670 (AR v2)Copy OKTrack 10Filename D:TorrentsMuddy Waters – Muddy, Brass And The Blues; Can’t Get No Grindin’ 201110. Hard Loser.wavPre-gap length 0:00:01.71Peak level 100.0 %Extraction speed 2.8 XTrack quality 100.0 %Test CRC 2A98AADECopy CRC 2A98AADEAccurately ripped (confidence 2) B459370A (AR v2)Copy OKTrack 11Filename D:TorrentsMuddy Waters – Muddy, Brass And The Blues; Can’t Get No Grindin’ 201111. Can’t Get No Grindin’ (What’s The Matter With The Meal).wavPre-gap length 0:00:01.67Peak level 100.0 %Extraction speed 2.9 XTrack quality 100.0 %Test CRC 26E10C24Copy CRC 26E10C24Accurately ripped (confidence 2) A6AA571B (AR v2)Copy OKTrack 12Filename D:TorrentsMuddy Waters – Muddy, Brass And The Blues; Can’t Get No Grindin’ 201112. Mother’s Bad Luck Child.wavPre-gap length 0:00:02.42Peak level 100.0 %Extraction speed 2.6 XTrack quality 99.9 %Test CRC 55AEB941Copy CRC 55AEB941Accurately ripped (confidence 2) D01CFC3A (AR v2)Copy OKTrack 13Filename D:TorrentsMuddy Waters – Muddy, Brass And The Blues; Can’t Get No Grindin’ 201113. Funky Butt.wavPre-gap length 0:00:01.64Peak level 100.0 %Extraction speed 3.1 XTrack quality 100.0 %Test CRC 292CA724Copy CRC 292CA724Accurately ripped (confidence 2) D9D43070 (AR v2)Copy OKTrack 14Filename D:TorrentsMuddy Waters – Muddy, Brass And The Blues; Can’t Get No Grindin’ 201114. Sad Letter.wavPre-gap length 0:00:01.63Peak level 100.0 %Extraction speed 2.6 XTrack quality 99.9 %Test CRC 0D144B8BCopy CRC 0D144B8BAccurately ripped (confidence 2) 682366BB (AR v2)Copy OKTrack 15Filename D:TorrentsMuddy Waters – Muddy, Brass And The Blues; Can’t Get No Grindin’ 201115. Someday I’m Gonna Ketch You.wavPre-gap length 0:00:01.58Peak level 100.0 %Extraction speed 3.4 XTrack quality 100.0 %Test CRC 58062CF8Copy CRC 58062CF8Accurately ripped (confidence 2) A62188E1 (AR v2)Copy OKTrack 16Filename D:TorrentsMuddy Waters – Muddy, Brass And The Blues; Can’t Get No Grindin’ 201116. Love Weapon.wavPre-gap length 0:00:02.19Peak level 100.0 %Extraction speed 3.6 XTrack quality 100.0 %Test CRC A0B9EB5BCopy CRC A0B9EB5BAccurately ripped (confidence 2) F161685F (AR v2)Copy OKTrack 17Filename D:TorrentsMuddy Waters – Muddy, Brass And The Blues; Can’t Get No Grindin’ 201117. Garbage Man.wavPre-gap length 0:00:02.24Peak level 100.0 %Extraction speed 3.4 XTrack quality 100.0 %Test CRC B3C608DFCopy CRC B3C608DFAccurately ripped (confidence 2) CD52913C (AR v2)Copy OKTrack 18Filename D:TorrentsMuddy Waters – Muddy, Brass And The Blues; Can’t Get No Grindin’ 201118. After Hours.wavPre-gap length 0:00:02.12Peak level 100.0 %Extraction speed 3.7 XTrack quality 100.0 %Test CRC D223E9DECopy CRC D223E9DEAccurately ripped (confidence 2) A24E88E7 (AR v2)Copy OKTrack 19Filename D:TorrentsMuddy Waters – Muddy, Brass And The Blues; Can’t Get No Grindin’ 201119. Whiskey Ain’t No Good.wavPre-gap length 0:00:01.58Peak level 100.0 %Extraction speed 3.9 XTrack quality 100.0 %Test CRC 112809BCCopy CRC 112809BCAccurately ripped (confidence 2) 92FFDA15 (AR v2)Copy OKTrack 20Filename D:TorrentsMuddy Waters – Muddy, Brass And The Blues; Can’t Get No Grindin’ 201120. Muddy Waters’ Shuffle.wavPre-gap length 0:00:01.61Peak level 100.0 %Extraction speed 4.5 XTrack quality 100.0 %Test CRC 644ABE73Copy CRC 644ABE73Accurately ripped (confidence 2) FBED7B1E (AR v2)Copy OKAll tracks accurately rippedNo errors occurredEnd of status report–– CUETools DB Plugin V2.1.3CTDB TOCID: tii22bgkCIDIOLwID.upTmF5hgk- disk not present in database, Submit result: tii22bgkCIDIOLwID.upTmF5hgk- has been uploaded==== Log checksum 297E146C5D112A7BD442A61A1C6441F6026D62D5C470895030A6D73015D17F8F ====

Read the original here: 
Muddy Waters – Muddy, Brass And The Blues (1966) + Can’t Get No Grindin’ (1973) 2 LP in 1 CD, Remastered 2011 Re-Up