downloads

Just in Time for Christmas (2015)

VideoID : 1Format : AVCFormat/Info : Advanced Video CodecFormat profile : High@L4Format settings, CABAC : YesFormat settings, ReFrames : 2 framesCodec ID : V_MPEG4/ISO/AVCDuration : 1h 36mnBit rate mode : VariableBit rate : 5 062 KbpsMaximum bit rate : 768 KbpsWidth : 1 920 pixelsHeight : 1 080 pixelsDisplay aspect ratio : 16:9Frame rate mode : ConstantFrame rate : 23.976 fpsOriginal frame rate : 25.000 fpsColor space : YUVChroma subsampling : 4:2:0Bit depth : 8 bitsScan type : ProgressiveBits/(Pixel*Frame) : 0.102Stream size : 3.41 GiB (91%)Title : Just.In.Time.for.Christmas.2015.1080p.WEB-DL.DD5.1.H264-FGTLanguage : EnglishDefault : YesForced : NoAudioID : 2Format : AC-3Format/Info : Audio Coding 3Mode extension : CM (complete main)Format settings, Endianness : BigCodec ID : A_AC3Duration : 1h 36mnBit rate mode : ConstantBit rate : 384 KbpsChannel(s) : 6 channelsChannel positions : Front: L C R, Side: L R, LFESampling rate : 48.0 KHzFrame rate : 31.250 fps (1536 spf)Compression mode : LossyStream size : 265 MiB (7%)Title : Just.In.Time.for.Christmas.2015.1080p.WEB-DL.DD5.1.H264-FGTLanguage : EnglishDefault : YesForced : NoTextID : 3Format : UTF-8Codec ID : S_TEXT/UTF8Codec ID/Info : UTF-8 Plain TextLanguage : EnglishDefault : YesForced : No

Originally posted here: 
Just in Time for Christmas (2015)