downloads

ITV – How To Remember Everything (2016)

×
ITV – How To Remember Everything (2016)

ITV – How To Remember Everything (2016)HDTV 720p | MKV | 1280×720 | AVC@2333 Kbps | English AC3@192 Kbps | 2 channels | 46mn 0s | 848 MiBHDTV 720p | MKV | 1920×1080 | AVC@5455 Kbps | English AC3@192 Kbps | 2 channels | 46mn 0s | 1.85 GiBGenre: DocumentaryThe average human brain is capable of remembering four things at a time. So why can some people remember four hundred? In this one hour documentary we explore the incredible world of competitive memory by following the stories of a group of British hopefuls as they take on the challenge of competing against the world’s leading memory athletes at the World Memory Championships in China. By following their training, we learn more about the simple techniques that the best mental athletes use to radically boost their ability to memorise anything from strings of numbers thousands of digits long to the order of a full deck of shuffled playing cards in less than 25 seconds.

GeneralUnique ID : 0 (0x0)Complete name : how.to.remember.everything.2016.720p.mkvFormat : MatroskaFormat version : Version 4 / Version 2File size : 848 MiBDuration : 46mn 0sOverall bit rate : 2 576 KbpsVideoID : 1Format : AVCFormat/Info : Advanced Video CodecFormat profile : High@L4.1Format settings, CABAC : YesFormat settings, ReFrames : 5 framesCodec ID : V_MPEG4/ISO/AVCDuration : 46mn 0sBit rate : 2 333 KbpsWidth : 1 280 pixelsHeight : 720 pixelsDisplay aspect ratio : 16:9Frame rate mode : ConstantFrame rate : 50.000 fpsColor space : YUVChroma subsampling : 4:2:0Bit depth : 8 bitsScan type : ProgressiveBits/(Pixel*Frame) : 0.051Stream size : 768 MiB (91%)Writing library : x264 core 148 r2721 72d53abEncoding settings : cabac=1 / ref=5 / deblock=1:0:0 / analyse=0x3:0x113 / me=hex / subme=8 / psy=1 / psy_rd=1.00:0.00 / mixed_ref=1 / me_range=16 / chroma_me=1 / trellis=2 / 8x8dct=1 / cqm=0 / deadzone=21,11 / fast_pskip=1 / chroma_qp_offset=-2 / threads=12 / lookahead_threads=2 / sliced_threads=0 / nr=0 / decimate=1 / interlaced=0 / bluray_compat=0 / constrained_intra=0 / bframes=3 / b_pyramid=2 / b_adapt=1 / b_bias=0 / direct=3 / weightb=1 / open_gop=0 / weightp=2 / keyint=250 / keyint_min=25 / scenecut=40 / intra_refresh=0 / rc_lookahead=50 / rc=crf / mbtree=1 / crf=21.0 / qcomp=0.60 / qpmin=0 / qpmax=69 / qpstep=4 / ip_ratio=1.40 / aq=1:1.00Language : EnglishDefault : YesForced : NoColor range : LimitedMatrix coefficients : BT.709AudioID : 2Format : AC-3Format/Info : Audio Coding 3Mode extension : CM (complete main)Format settings, Endianness : BigCodec ID : A_AC3Duration : 46mn 0sBit rate mode : ConstantBit rate : 192 KbpsChannel(s) : 2 channelsChannel positions : Front: L RSampling rate : 48.0 KHzCompression mode : LossyStream size : 63.2 MiB (7%)Language : EnglishDefault : YesForced : No

GeneralUnique ID : 0 (0x0)Complete name : how.to.remember.everything.2016.1080p.mkvFormat : MatroskaFormat version : Version 4 / Version 2File size : 1.85 GiBDuration : 46mn 0sOverall bit rate : 5 761 KbpsEncoded date : UTC 2010-02-22 21:41:29Writing application : no_variable_dataWriting library : no_variable_dataVideoID : 1Format : AVCFormat/Info : Advanced Video CodecFormat profile : High@L4.2Format settings, CABAC : YesFormat settings, ReFrames : 4 framesCodec ID : V_MPEG4/ISO/AVCDuration : 46mn 0sBit rate : 5 455 KbpsWidth : 1 920 pixelsHeight : 1 080 pixelsDisplay aspect ratio : 16:9Frame rate mode : ConstantFrame rate : 50.000 fpsColor space : YUVChroma subsampling : 4:2:0Bit depth : 8 bitsScan type : ProgressiveBits/(Pixel*Frame) : 0.053Stream size : 1.75 GiB (95%)Writing library : x264 core 148 r2721 72d53abEncoding settings : cabac=1 / ref=4 / deblock=1:0:0 / analyse=0x3:0x113 / me=hex / subme=8 / psy=1 / psy_rd=1.00:0.00 / mixed_ref=1 / me_range=16 / chroma_me=1 / trellis=2 / 8x8dct=1 / cqm=0 / deadzone=21,11 / fast_pskip=1 / chroma_qp_offset=-2 / threads=12 / lookahead_threads=2 / sliced_threads=0 / nr=0 / decimate=1 / interlaced=0 / bluray_compat=0 / constrained_intra=0 / bframes=3 / b_pyramid=2 / b_adapt=1 / b_bias=0 / direct=3 / weightb=1 / open_gop=0 / weightp=2 / keyint=250 / keyint_min=25 / scenecut=40 / intra_refresh=0 / rc_lookahead=50 / rc=crf / mbtree=1 / crf=21.0 / qcomp=0.60 / qpmin=0 / qpmax=69 / qpstep=4 / ip_ratio=1.40 / aq=1:1.00Language : EnglishDefault : YesForced : NoColor range : LimitedMatrix coefficients : BT.709AudioID : 2Format : AC-3Format/Info : Audio Coding 3Mode extension : CM (complete main)Format settings, Endianness : BigCodec ID : A_AC3Duration : 46mn 0sBit rate mode : ConstantBit rate : 192 KbpsChannel(s) : 2 channelsChannel positions : Front: L RSampling rate : 48.0 KHzCompression mode : LossyStream size : 63.2 MiB (3%)Language : EnglishDefault : YesForced : No

Screenshots 720p:

×
ITV – How To Remember Everything (2016)

×
ITV – How To Remember Everything (2016)

×
ITV – How To Remember Everything (2016)

×
ITV – How To Remember Everything (2016)

Screenshots 1080p:

Excerpt from:
ITV – How To Remember Everything (2016)