downloads

George Benson – The George Benson Collection (U.S. pressing) (1981) Warner Bros.

Exact Audio Copy V1.1 from 23. June 2015EAC extraction logfile from 23. November 2016, 10:17George Benson / The George Benson CollectionUsed drive : TEAC DVD-ROM DV-28SW Adapter: 1 ID: 0Read mode : SecureUtilize accurate stream : YesDefeat audio cache : YesMake use of C2 pointers : NoRead offset correction : 6Overread into Lead-In and Lead-Out : NoFill up missing offset samples with silence : YesDelete leading and trailing silent blocks : NoNull samples used in CRC calculations : YesUsed interface : Native Win32 interface for Win NT & 2000Gap handling : Appended to previous trackUsed output format : Internal WAV RoutinesSample format : 44.100 Hz; 16 Bit; StereoTOC of the extracted CDTrack | Start | Length | Start sector | End sector ––––––––––––––––––––––––––––-1 | 0:00.33 | 3:51.25 | 33 | 17382 2 | 3:51.58 | 4:10.02 | 17383 | 36134 3 | 8:01.60 | 3:43.13 | 36135 | 52872 4 | 11:44.73 | 4:06.17 | 52873 | 71339 5 | 15:51.15 | 5:18.10 | 71340 | 95199 6 | 21:09.25 | 6:58.60 | 95200 | 126609 7 | 28:08.10 | 3:19.33 | 126610 | 141567 8 | 31:27.43 | 4:17.27 | 141568 | 160869 9 | 35:44.70 | 4:20.55 | 160870 | 180424 10 | 40:05.50 | 5:01.20 | 180425 | 203019 11 | 45:06.70 | 6:38.63 | 203020 | 232932 12 | 51:45.58 | 2:33.70 | 232933 | 244477 13 | 54:19.53 | 5:39.40 | 244478 | 269942 14 | 59:59.18 | 3:26.57 | 269943 | 285449 15 | 63:26.00 | 3:28.35 | 285450 | 301084 16 | 66:54.35 | 5:33.20 | 301085 | 326079 Track 1Filename C:My DocumentsMy FLACGeorge Benson – The George Benson Collection (1981) FLAC Warner Bros.1 – Turn Your Love Around.wavPre-gap length 0:00:02.33Peak level 93.8 %Extraction speed 1.9 XTrack quality 100.0 %Test CRC 24EEFDF6Copy CRC 24EEFDF6Accurately ripped (confidence 23) BAC16F43 (AR v2)Copy OKTrack 2Filename C:My DocumentsMy FLACGeorge Benson – The George Benson Collection (1981) FLAC Warner Bros.2 – Love All The Hurt Away.wavPre-gap length 0:00:01.18Peak level 58.6 %Extraction speed 2.1 XTrack quality 100.0 %Test CRC C5E15B10Copy CRC C5E15B10Accurately ripped (confidence 26) 26A061F8 (AR v2)Copy OKTrack 3Filename C:My DocumentsMy FLACGeorge Benson – The George Benson Collection (1981) FLAC Warner Bros.3 – Give Me The Night.wavPre-gap length 0:00:04.27Peak level 90.0 %Extraction speed 2.2 XTrack quality 100.0 %Test CRC 82CA170ECopy CRC 82CA170EAccurately ripped (confidence 26) B93E6FDD (AR v2)Copy OKTrack 4Filename C:My DocumentsMy FLACGeorge Benson – The George Benson Collection (1981) FLAC Warner Bros.4 – Never Give Up On A Good Thing.wavPre-gap length 0:00:00.40Peak level 83.8 %Extraction speed 2.3 XTrack quality 100.0 %Test CRC D7071D7CCopy CRC D7071D7CAccurately ripped (confidence 26) F95C08E5 (AR v2)Copy OKTrack 5Filename C:My DocumentsMy FLACGeorge Benson – The George Benson Collection (1981) FLAC Warner Bros.5 – On Broadway.wavPre-gap length 0:00:01.22Peak level 100.0 %Extraction speed 2.5 XTrack quality 100.0 %Test CRC B9B82BCCCopy CRC B9B82BCCAccurately ripped (confidence 26) B15EF48C (AR v2)Copy OKTrack 6Filename C:My DocumentsMy FLACGeorge Benson – The George Benson Collection (1981) FLAC Warner Bros.6 – White Rabbit.wavPre-gap length 0:00:01.72Peak level 73.1 %Extraction speed 2.5 XTrack quality 100.0 %Test CRC 76D4BB01Copy CRC 76D4BB01Accurately ripped (confidence 26) B9CF9110 (AR v2)Copy OKTrack 7Filename C:My DocumentsMy FLACGeorge Benson – The George Benson Collection (1981) FLAC Warner Bros.7 – This Masquerade.wavPre-gap length 0:00:01.37Peak level 82.5 %Extraction speed 2.7 XTrack quality 100.0 %Test CRC BFFECB57Copy CRC BFFECB57Accurately ripped (confidence 26) 8887873A (AR v2)Copy OKTrack 8Filename C:My DocumentsMy FLACGeorge Benson – The George Benson Collection (1981) FLAC Warner Bros.8 – Love Ballad.wavPre-gap length 0:00:02.10Peak level 82.7 %Extraction speed 3.1 XTrack quality 100.0 %Test CRC 25BAF70FCopy CRC 25BAF70FAccurately ripped (confidence 25) 15F55251 (AR v2)Copy OKTrack 9Filename C:My DocumentsMy FLACGeorge Benson – The George Benson Collection (1981) FLAC Warner Bros.9 – Nature Boy.wavPre-gap length 0:00:01.02Peak level 100.0 %Extraction speed 3.1 XTrack quality 100.0 %Test CRC 78815F9BCopy CRC 78815F9BAccurately ripped (confidence 23) 607F537B (AR v2)Copy OKTrack 10Filename C:My DocumentsMy FLACGeorge Benson – The George Benson Collection (1981) FLAC Warner Bros.10 – Last Train To Clarksville.wavPre-gap length 0:00:02.50Peak level 92.1 %Extraction speed 3.3 XTrack quality 100.0 %Test CRC 0ECFC7C6Copy CRC 0ECFC7C6Accurately ripped (confidence 22) 8B289CBA (AR v2)Copy OKTrack 11Filename C:My DocumentsMy FLACGeorge Benson – The George Benson Collection (1981) FLAC Warner Bros.11 – Livin’ Inside Your Love.wavPre-gap length 0:00:01.72Peak level 83.6 %Extraction speed 3.7 XTrack quality 100.0 %Test CRC 60080A69Copy CRC 60080A69Accurately ripped (confidence 23) C5483FF1 (AR v2)Copy OKTrack 12Filename C:My DocumentsMy FLACGeorge Benson – The George Benson Collection (1981) FLAC Warner Bros.12 – Here Comes The Sun.wavPre-gap length 0:00:01.55Peak level 54.8 %Extraction speed 3.3 XTrack quality 100.0 %Test CRC 87F4583FCopy CRC 87F4583FAccurately ripped (confidence 25) C422374A (AR v2)Copy OKTrack 13Filename C:My DocumentsMy FLACGeorge Benson – The George Benson Collection (1981) FLAC Warner Bros.13 – Breezin’.wavPre-gap length 0:00:00.60Peak level 73.4 %Extraction speed 3.8 XTrack quality 100.0 %Test CRC A00FBB26Copy CRC A00FBB26Accurately ripped (confidence 24) E7F61804 (AR v2)Copy OKTrack 14Filename C:My DocumentsMy FLACGeorge Benson – The George Benson Collection (1981) FLAC Warner Bros.14 – Moody’s Mood.wavPre-gap length 0:00:02.00Peak level 76.6 %Extraction speed 3.6 XTrack quality 100.0 %Test CRC 94688B98Copy CRC 94688B98Accurately ripped (confidence 21) AB62E6DF (AR v2)Copy OKTrack 15Filename C:My DocumentsMy FLACGeorge Benson – The George Benson Collection (1981) FLAC Warner Bros.15 – We Got The Love.wavPre-gap length 0:00:01.02Peak level 88.0 %Extraction speed 3.2 XTrack quality 99.9 %Test CRC FFF29834Copy CRC FFF29834Accurately ripped (confidence 22) F35DC484 (AR v2)Copy OKTrack 16Filename C:My DocumentsMy FLACGeorge Benson – The George Benson Collection (1981) FLAC Warner Bros.16 – The Greatest Love Of All.wavPre-gap length 0:00:01.50Peak level 60.5 %Extraction speed 4.0 XTrack quality 100.0 %Test CRC BBBA0A46Copy CRC BBBA0A46Accurately ripped (confidence 20) 6340A51A (AR v2)Copy OKAll tracks accurately rippedNo errors occurredEnd of status report–– CUETools DB Plugin V2.1.6CTDB TOCID: eh_PfKyXFHHKeP9R_UarTqyWTlk- foundSubmit result: eh_PfKyXFHHKeP9R_UarTqyWTlk- has been confirmedTrack | CTDB Status1 | (33/54) Accurately ripped2 | (32/54) Accurately ripped3 | (32/54) Accurately ripped4 | (32/54) Accurately ripped5 | (31/54) Accurately ripped6 | (30/54) Accurately ripped7 | (32/54) Accurately ripped8 | (32/54) Accurately ripped9 | (32/54) Accurately ripped10 | (33/54) Accurately ripped11 | (32/54) Accurately ripped12 | (32/54) Accurately ripped13 | (29/54) Accurately ripped14 | (31/54) Accurately ripped15 | (33/54) Accurately ripped16 | (30/54) Accurately ripped==== Log checksum 3B3FFC063E49F408561BA4A4370ACA22F1F36046D5FF4D25D352D219C7A2C5B2 ====

Go here to see the original: 
George Benson – The George Benson Collection (U.S. pressing) (1981) Warner Bros.