downloads

Bob Drake – The Skull Mailbox And Other Horrors (2001)

Bob Drake – The Skull Mailbox And Other Horrors (2001)Rock | 1cd | EAC Rip | Flac + Cue + Log | coversCrumbling Tomes Archive, CTA 9 | rel: 2001 | 280MbBob Drake’s third solo album is his most deranged and (consequently) delightful. The theme of The Skull Mailbox (And Other Horrors) is scary stories, the kind where ghosts remain discreet and fear is palpable for unknown reasons – the kind HP Lovecraft and Edgar Allan Poe wrote. In 43 minutes, the singer/songwriter finds a way to storm through 27 songs that range from warped folk tunes to full-fledged (although very short) avant-prog pieces. He performs all instruments, mostly acoustic guitar, junk percussion, air-pump organ, and vocals, plus some electric guitar, bass, and keyboards. Oh, and lots of miscellaneous noises. Drake intended to keep the focus on the acoustic instrumentation, but his extensive production warps every track. The whole project was allegedly recorded in a decrepit barn, hence the strange background noises one can hear. The whats and wheres don’t matter: The Skull Mailbox is a masterpiece that takes listeners back to 5uu’s Crisis in Clay. Shortness is elevated to an art, background sounds and textures have been turned into living elements, and seemingly innocent guitar-and-vocals songs hide horrible lyrics and detuned instruments. The dead must have been dancing all around Drake’s mixing desk in a grotesque parody of Edward Gorey’s drawings. All the characters are demented, dead, or locked up in the cellar. Not for the faint at heart (or ears), this album will delight fans of classic horror literature with a taste for bizarre avant-rock. Strongly recommended.~AllmusicTrack listing01. They Live in the Well (1:32)02. The Skull Mailbox (0:55)03. The Tower (1:02)04. Cellar of Madness (1:53)05. The Box in the Orchard (1:47)06. In the Tomb (1:54)07. The Shocking Efflorescence (1:25)08. Attar of Roses (0:31)09. The Miraculous Reliquary (2:40)10. The Wig Screamed Murder (2:16)11. Fearsome Heads I (1:37)12. Fearsome Heads II (0:34)13. The Horrible Garden (1:50)14. Some Accursed Things (3:22)15. You Can’t Outwit That Thing (0:54)16. The Demented Statuary (2:48)17. It (0:55)18. The Unmentionable Inhabitant (1:05)19. The Tragic Seance (1:02)20. Something’s Coming (0:31)21. Calla Lily (1:51)22. Spirit Drapery Veils the Hiatus (2:28)23. The Hideous Portraits (1:26)24. Spirit Drapery Reprise (0:32)25. Crepuscular Vestibule (0:35)26. You STILL can’t outwit that thing (1:06)27. The Medium’s House (3:37)Personnel- Bob Drake / all instruments, voices

Exact Audio Copy V0.99 prebeta 4 from 23. January 2008Отчёт EAC об извлечении, выполненном 23. апреля 2012, 21:21Bob Drake / The Skull MailboxДисковод: HL-DT-STDVDRAM GSA-T50L Adapter: 0 ID: 1Режим чтения : ДостоверностьИспользование точного потока : ДаОтключение кэша аудио : ДаИспользование указателей C2 : НетКоррекция смещения при чтении : 667Способность читать области Lead-in и Lead-out : НетЗаполнение пропущенных сэмплов тишиной : ДаУдаление блоков с тишиной в начале и конце : НетПри вычислениях CRC использовались нулевые сэмплы : ДаИнтерфейс : Встроенный Win32-интерфейс для Win NT/2000Выходной формат : Внутренние WAV-операцииФормат сэмплов : 44.100 Гц; 16 бит; стереоTOC извлечённого CDТрек | Старт | Длительность | Начальный сектор | Конечный сектор ––––––––––––––––––––––––––––––––––-1 | 0:00.00 | 1:36.17 | 0 | 7216 2 | 1:36.17 | 0:58.66 | 7217 | 11632 3 | 2:35.08 | 1:05.50 | 11633 | 16557 4 | 3:40.58 | 1:57.16 | 16558 | 25348 5 | 5:37.74 | 1:52.64 | 25349 | 33812 6 | 7:30.63 | 1:59.49 | 33813 | 42786 7 | 9:30.37 | 1:30.10 | 42787 | 49546 8 | 11:00.47 | 0:31.74 | 49547 | 51945 9 | 11:32.46 | 2:45.56 | 51946 | 64376 10 | 14:18.27 | 2:23.43 | 64377 | 75144 11 | 16:41.70 | 1:37.68 | 75145 | 82487 12 | 18:19.63 | 0:38.37 | 82488 | 85374 13 | 18:58.25 | 1:54.60 | 85375 | 93984 14 | 20:53.10 | 3:28.00 | 93985 | 109584 15 | 24:21.10 | 1:04.31 | 109585 | 114415 16 | 25:25.41 | 2:52.69 | 114416 | 127384 17 | 28:18.35 | 1:00.23 | 127385 | 131907 18 | 29:18.58 | 1:05.28 | 131908 | 136810 19 | 30:24.11 | 1:02.57 | 136811 | 141517 20 | 31:26.68 | 0:31.33 | 141518 | 143875 21 | 31:58.26 | 1:57.54 | 143876 | 152704 22 | 33:56.05 | 2:28.73 | 152705 | 163877 23 | 36:25.03 | 1:26.40 | 163878 | 170367 24 | 37:51.43 | 0:38.45 | 170368 | 173262 25 | 38:30.13 | 0:35.62 | 173263 | 175949 26 | 39:06.00 | 1:13.02 | 175950 | 181426 27 | 40:19.02 | 3:37.00 | 181427 | 197701 Характеристики диапазона извлечения и сообщения об ошибкахВыбранный диапазонИмя файла E:Раздачи_BDrake-The Skull MailboxBob Drake – The Skull Mailbox.wavПиковый уровень 100.0 %Качество диапазона 100.0 %CRC копии A67D2B2DКопирование… OKОшибок не произошлоAccurateRip: сводкаТрек 1 нет в базе данныхТрек 2 нет в базе данныхТрек 3 нет в базе данныхТрек 4 нет в базе данныхТрек 5 нет в базе данныхТрек 6 нет в базе данныхТрек 7 нет в базе данныхТрек 8 нет в базе данныхТрек 9 нет в базе данныхТрек 10 нет в базе данныхТрек 11 нет в базе данныхТрек 12 нет в базе данныхТрек 13 нет в базе данныхТрек 14 нет в базе данныхТрек 15 нет в базе данныхТрек 16 нет в базе данныхТрек 17 нет в базе данныхТрек 18 нет в базе данныхТрек 19 нет в базе данныхТрек 20 нет в базе данныхТрек 21 нет в базе данныхТрек 22 нет в базе данныхТрек 23 нет в базе данныхТрек 24 нет в базе данныхТрек 25 нет в базе данныхТрек 26 нет в базе данныхТрек 27 нет в базе данныхНи одного трека нет в базе AccurateRipКонец отчёта

CUETools log; Date: 2016. 12. 01. 10:06:35; Version: 2.1.6AccurateRip ID: 002a2134-03309e83-500a4c1b disk not present in database.Track Peak CRC32 W/O NULL – 100,0 A67D2B2D C5541DC2 01 94,8 191BC5E4 411DDAAE 02 98,8 BAFCEB8B D56A556D 03 84,1 CF3D4B16 C7FDFD74 04 97,3 56700DFF B84B9BC8 05 67,1 1DEAF991 508FFFAB 06 100,0 7CA245DF 48725FFC 07 100,0 30972BE9 6D19983A 08 48,0 0602C8A3 1DB4F980 09 100,0 E719CFB1 2D33BC57 10 100,0 46137EC3 EF589899 11 100,0 DBBE1DD7 5D90CB0B 12 30,8 EE66310E 13191E42 13 98,3 6CD27DF7 5BC77D75 14 100,0 E70AF9B6 8CF28022 15 100,0 84BB0A85 A539FEF2 16 100,0 4501A195 122DAD46 17 99,5 DD1A29F1 A22577FA 18 99,8 CA619994 227AEAE8 19 80,5 DFE2FD03 30C1087A 20 100,0 72E3039A C22C3549 21 100,0 D4D7595D 1E1E5B97 22 100,0 A7059DFC CDD645FC 23 100,0 F278847E D04AD5AC 24 100,0 FDE78E64 9FAB3717 25 69,9 4BC40C24 6DC3EF5E 26 100,0 389667D3 7D5CC97C 27 100,0 C8CB297E 5E86BE59

Thx to gold62

Read the original post:
Bob Drake – The Skull Mailbox And Other Horrors (2001)