downloads

Berliner Philharmoniker & Sir Simon Rattle – Jean Sibelius – Symphonies Nos. 1-7 (2015) DD 24bit/192kHz

Berliner Philharmoniker & Sir Simon Rattle – Jean Sibelius – Symphonies Nos. 1-7 (2015) FLAC tracks 24bit/192kHz | Digital Booklet | 6.49GB + 5% RecoveryStudio Master, Official Digital Download, Berlin Phil MediaFor Simon Rattle, Jean Sibelius is “one of the most staggeringly original composers that there is”. And indeed, this music has a unique musical language whose many beauties are particularly succinctly conveyed in Sibelius’s seven symphonies. There is sonorous warmth as much as there is austere Nordic folklore. Moreover, there is a conceptual boldness that takes the listener on exciting musical journeys of discovery. In 2015, to celebrate the 150th anniversary of Sibelius’s birth, Simon Rattle and the Berliner Philharmoniker presented the cycle live, which was met with unanimous delight by audiences and critics alike. “The Philharmoniker show that with them and Simon Rattle, Sibelius is in excellent hands,” wrote the Berliner Zeitung, “because the orchestra has that astringency and sheer power which is so important for this kind of music.”Track ListJean Sibelius (1865-1957)Symphony No. 1 in E Minor, Op. 391. I. Andante, ma non troppo – Allegro energico 10:402. II. Andante 09:213. III. Scherzo: Allegro 05:124. IV. Finale: Andante – Allegro molto 12:25Symphony No. 2 in D Major, Op. 435. I. Allegretto 09:386. Tempo andante, ma rubato 13:497. III. Vivacissimo 06:008. IV. Finale: Allegro moderato 13:48Symphony No. 3 in C Major, Op. 529. I. Allegro moderato 10:1310. II. Andantino con moto, quasi allegretto – Un pocchettino con moto – Tempo primo 09:2111. III. Moderato – Allegro (Ma non tanto) – Sempre energico 08:43Symphony No. 4 in A Minor, Op. 6312. I. Tempo molto moderato, quasi adagio 10:2413. II. Allegro molto vivace – Doppio più lento 04:4314. III. Il tempo largo 11:4515. IV. Allegro 10:01Symphony No. 5 in E flat major, Op. 8216. I. Tempo molto moderato – Allegro moderato – Presto – Più presto 13:0817. II. Andante mosso, quasi allegretto – Tranquillo – Poco a poco stretto – Tempo primo 08:1718. III. Allegro molto – Misterioso – Largamente assai – Un pochettino stretto 09:08Symphony No. 6 in D Minor, Op. 10419. I. Allegro molto moderato 09:1020. II. Allegretto moderato 06:0221. III. Poco vivace 03:3522. IV. Allegro molto 10:22Symphony No. 7 in C Major, Op. 10523. Adagio 09:4224. Vivacissimo – Adagio 02:4425. Allegro molto moderato – Allegro moderato 03:5826. Vivace – Presto – Adagio – Largamente molto – Affettuoso 05:23Berliner PhilharmonikerSir Simon Rattle – conductor

––––––––––––––––––––––––––––––––––––––––Analyzed: Berliner Philharmoniker, Sir Simon Rattle / Jean Sibelius: Symphonies Nos. 1-7––––––––––––––––––––––––––––––––––––––––DR Peak RMS Duration Track––––––––––––––––––––––––––––––––––––––––DR14 -1.01 dB -21.25 dB 10:40 01-Symphony No. 1 in E minor, Op. 39: I. Andante, ma non troppo – Allegro energicoDR15 -1.56 dB -23.41 dB 9:21 02-Symphony No. 1 in E minor, Op. 39: II. AndanteDR16 -2.40 dB -24.37 dB 5:12 03-Symphony No. 1 in E minor, Op. 39: III. Scherzo: AllegroDR14 -1.01 dB -20.22 dB 12:25 04-Symphony No. 1 in E minor, Op. 39: IV. Finale: Andante – Allegro moltoDR14 -1.81 dB -23.97 dB 9:38 05-Symphony No. 2 in D major, Op. 43: I. AllegrettoDR15 -1.26 dB -22.46 dB 13:49 06-Symphony No. 2 in D major, Op. 43: II. Tempo andante, ma rubatoDR14 -2.09 dB -24.06 dB 6:00 07-Symphony No. 2 in D major, Op. 43: III. Vivacissimo -DR13 -1.01 dB -20.13 dB 13:48 08-Symphony No. 2 in D major, Op. 43: IV. Finale: Allegro moderatoDR14 -3.07 dB -23.69 dB 10:13 09-Symphony No. 3 in C major, Op. 52: I. Allegro moderatoDR14 -10.24 dB -31.56 dB 9:21 10-Symphony No. 3 in C major, Op. 52: II. Andantino con moto, quasi allegretto – Un pocchettino con moto – Tempo primoDR12 -1.96 dB -23.22 dB 8:43 11-Symphony No. 3 in C major, Op. 52: III. Moderato – Allegro (ma non tanto) – Sempre energicoDR17 -4.21 dB -27.86 dB 10:24 12-Symphony No. 4 in A minor, Op. 63: I. Tempo molto moderato, quasi adagioDR14 -9.15 dB -29.26 dB 4:43 13-Symphony No. 4 in A minor, Op. 63: II. Allegro molto vivace – Doppio più lentoDR16 -2.46 dB -28.47 dB 11:45 14-Symphony No. 4 in A minor, Op. 63: III. Il tempo largoDR16 -2.79 dB -25.70 dB 10:01 15-Symphony No. 4 in A minor, Op. 63: IV. AllegroDR15 -1.84 dB -23.69 dB 13:08 16-Symphony No. 5 in E flat major, Op. 82: I. Tempo molto moderato – Allegro moderato – Presto – Più prestoDR14 -5.79 dB -28.36 dB 8:17 17-Symphony No. 5 in E flat major, Op. 82: II. Andante mosso, quasi allegretto – Tranquillo – Poco a poco stretto – Tempo primoDR14 -1.01 dB -21.74 dB 9:08 18-Symphony No. 5 in E flat major, Op. 82: III. Allegro molto – Misterioso – Largamente assai – Un pochettino strettoDR14 -6.90 dB -27.57 dB 9:10 19-Symphony No. 6 in D minor, Op. 104: I. Allegro molto moderatoDR14 -6.93 dB -29.61 dB 6:02 20-Symphony No. 6 in D minor, Op. 104: II. Allegretto moderatoDR15 -3.15 dB -26.21 dB 3:35 21-Symphony No. 6 in D minor, Op. 104: III. Poco vivaceDR16 -3.45 dB -26.04 dB 10:22 22-Symphony No. 6 in D minor, Op. 104: IV. Allegro moltoDR13 -4.27 dB -25.89 dB 9:42 23-Symphony No. 7 in C major, Op. 105: Adagio -DR13 -2.51 dB -22.74 dB 2:44 24-Symphony No. 7 in C major, Op. 105: Vivacissimo – Adagio -DR16 -3.86 dB -26.00 dB 3:58 25-Symphony No. 7 in C major, Op. 105: Allegro molto moderato – Allegro moderato -DR13 -1.60 dB -22.37 dB 5:23 26-Symphony No. 7 in C major, Op. 105: Vivace – Presto – Adagio – Largamente molto – Affettuoso––––––––––––––––––––––––––––––––––––––––Number of tracks: 26Official DR value: DR14Samplerate: 192000 HzChannels: 2Bits per sample: 24Bitrate: 4230 kbpsCodec: FLAC================================================================================

Thanks to the original customer

Read the rest here: 
Berliner Philharmoniker & Sir Simon Rattle – Jean Sibelius – Symphonies Nos. 1-7 (2015) DD 24bit/192kHz