downloads

Barry Gibb – In The Now (2016) Japan 1st Press, Blu-spec CD2

Barry Gibb – In The Now (2016) Japan 1st Press, Blu-spec CD2EAC Rip | FLAC: Image+Cue+Log | 473 Gb | MP3 CBR 320 kbps | 175 Mb | Scans | 139 Mb | Time: 01:05:17Sony Music Labels Inc. | SICP-30889Soft Rock, Pop Rock, R&B, Country, Singer-songwriterIN THE NOW is the second solo album by British singer-songwriter Barry Gibb, released on 7 October 2016 by Columbia Records. Although his second solo album (since 1984’s Now Voyager), it is the first of all new material since the Bee Gees’ final studio album This Is Where I Came In (2001). Gibb said of the album: “This is a dream come true for me. It’s a new chapter in my life. I always hoped one day that The Bee Gees would be with Columbia or indeed Sony so, it’s a great joy for me to start again this way with such great people.”

Track Listing01. In The Now (04:53)02. Grand Illusion (04:42)03. Star Crossed Lovers (03:20)04. Blowin’ A Fuse (04:45)05. Home Truth Song (05:09)06. Meaning Of The Word (04:34)07. Cross To Bear (06:01)08. Shadows (04:35)09. Amy In Colour (04:27)10. The Long Goodbye (02:41)11. Diamonds (05:19)12. End Of The Rainbow (04:10)13. Grey Ghost (bonus track) (04:24)14. Daddy’s Little Girl (bonus track) (03:17)15. Soldier’s Son (bonus track) (03:00)Produced by Barry Gibb and John MerchantMusicians• Barry Gibb – Guitar, Vocals• Ed Maina – Baritone Saxophone• Julio Hernandez – Bass• Claudio Jaffe, David Cole – Cello• Lee Levin – Drums, Percussion• Dan Warner, Stephen Gibb – Guitar• Ben Stivers – Keyboards• Doug Emery – Keyboards• Richard Bravo – Percussion• Ed Calle – Tenor Saxophone, Soprano Saxophone• John Kricker – Trombone• Doug Michels, Jim Hacker – Trumpet• Anthony Parce, Chauncey Patterson, Scott O’Donnell – Viola• Carol Cole, Evija Ozolins, Huifang Chen, Mark Schuppener, Monica Cheveresan, Scott Flavin, Tomas Cotik, Valentin Mansurov, Alfredo Oliva – Violin

Exact Audio Copy V1.3 from 2. September 2016EAC extraction logfile from 18. October 2016, 13:33Barry Gibb / In The Now (Japanese Edition)Used drive : PLEXTOR DVDR PX-810SA Adapter: 1 ID: 0Read mode : SecureUtilize accurate stream : YesDefeat audio cache : YesMake use of C2 pointers : NoRead offset correction : 48Overread into Lead-In and Lead-Out : NoFill up missing offset samples with silence : YesDelete leading and trailing silent blocks : NoNull samples used in CRC calculations : YesUsed interface : Installed external ASPI interfaceUsed output format : User Defined EncoderSelected bitrate : 1024 kBit/sQuality : HighAdd ID3 tag : NoCommand line compressor : C:Program Files (x86)Exact Audio CopyFlacflac.exeAdditional command line options : -8 -V -T “Date=%year%” -T “Genre=%genre%” -T “COMMENT=ripped by bvstudio®” AvaxHomeTOC of the extracted CDTrack | Start | Length | Start sector | End sector ––––––––––––––––––––––––––––-1 | 0:00.00 | 4:52.65 | 0 | 21964 2 | 4:52.65 | 4:42.26 | 21965 | 43140 3 | 9:35.16 | 3:19.62 | 43141 | 58127 4 | 12:55.03 | 4:44.33 | 58128 | 79460 5 | 17:39.36 | 5:08.57 | 79461 | 102617 6 | 22:48.18 | 4:34.03 | 102618 | 123170 7 | 27:22.21 | 6:01.28 | 123171 | 150273 8 | 33:23.49 | 4:35.24 | 150274 | 170922 9 | 37:58.73 | 4:26.52 | 170923 | 190924 10 | 42:25.50 | 2:40.50 | 190925 | 202974 11 | 45:06.25 | 5:18.68 | 202975 | 226892 12 | 50:25.18 | 4:10.09 | 226893 | 245651 13 | 54:35.27 | 4:23.61 | 245652 | 265437 14 | 58:59.13 | 3:17.15 | 265438 | 280227 15 | 62:16.28 | 2:59.52 | 280228 | 293704 Range status and errorsSelected rangeFilename F:2016 – In The Now (2016 – Sony Music Labels Inc. Japan – SICP 30889)Barry Gibb – In The Now (Japanese Edition).wavPeak level 100.0 %Extraction speed 7.9 XRange quality 100.0 %Test CRC 4A838190Copy CRC 4A838190Copy OKNo errors occurredAccurateRip summaryTrack 1 not present in databaseTrack 2 not present in databaseTrack 3 not present in databaseTrack 4 not present in databaseTrack 5 not present in databaseTrack 6 not present in databaseTrack 7 not present in databaseTrack 8 not present in databaseTrack 9 not present in databaseTrack 10 not present in databaseTrack 11 not present in databaseTrack 12 not present in databaseTrack 13 not present in databaseTrack 14 not present in databaseTrack 15 not present in databaseNone of the tracks are present in the AccurateRip databaseEnd of status report–– CUETools DB Plugin V2.1.6CTDB TOCID: LZHX5KuqrCPLFzX6lp7T8RwvWqM- foundSubmit result: LZHX5KuqrCPLFzX6lp7T8RwvWqM- has been confirmedTrack | CTDB Status1 | (16/16) Accurately ripped2 | (16/16) Accurately ripped3 | (16/16) Accurately ripped4 | (16/16) Accurately ripped5 | (16/16) Accurately ripped6 | (16/16) Accurately ripped7 | (16/16) Accurately ripped8 | (16/16) Accurately ripped9 | (16/16) Accurately ripped10 | (16/16) Accurately ripped11 | (16/16) Accurately ripped12 | (16/16) Accurately ripped13 | (16/16) Accurately ripped14 | (16/16) Accurately ripped15 | (16/16) Accurately ripped==== Log checksum 0CAD63DFADD46A34C9E5A6B43C1782B534B724FB0FB0E16FBB5184E0F35F80FB ====

Many thanks to the original uploader: bvstudio

Originally posted here:
Barry Gibb – In The Now (2016) Japan 1st Press, Blu-spec CD2