downloads

Bang On A Can – Classics (2002)

X Lossless Decoder version 20160920 (149.2)XLD extraction logfile from 2016-11-25 12:45:27 +0300Bang On A Can / ClassicsUsed drive : PIONEER DVD-RW DVR-112D (revision BC14)Media type : Pressed CDRipper mode : XLD Secure RipperDisable audio cache : OK for the drive with a cache less than 1375KiBMake use of C2 pointers : NORead offset correction : 48Max retry count : 20Gap status : Analyzed, Appended (except HTOA)TOC of the extracted CDTrack | Start | Length | Start sector | End sector ––––––––––––––––––––––––––––-1 | 00:00:00 | 10:30:70 | 0 | 47319 2 | 10:30:70 | 09:18:47 | 47320 | 89216 3 | 19:49:42 | 10:41:00 | 89217 | 137291 4 | 30:30:42 | 04:08:38 | 137292 | 155929 5 | 34:39:05 | 10:42:42 | 155930 | 204121 6 | 45:21:47 | 15:58:08 | 204122 | 275979 7 | 61:19:55 | 10:19:07 | 275980 | 322411 List of alternate offset correction values# | Absolute | Relative | Confidence –––––––––––––––––––––1 | 42 | -6 | 1 AccurateRip Summary (DiscID: 0012cd91-007153b6-5210ca07)Track 01 : OK (v2, confidence 1/1, with different offset)Track 02 : OK (v2, confidence 1/1, with different offset)Track 03 : OK (v2, confidence 1/1, with different offset)Track 04 : OK (v2, confidence 1/1, with different offset)Track 05 : OK (v2, confidence 1/1, with different offset)Track 06 : OK (v2, confidence 1/1, with different offset)Track 07 : OK (v2, confidence 1/1, with different offset)->All tracks accurately ripped.All TracksAlbum gain : -0.58 dBPeak : 0.996460StatisticsRead error : 0Jitter error (maybe fixed) : 0Retry sector count : 0Damaged sector count : 0Track 01Filename : /Volumes/MEM3/_Torrents/_Rip/Bang On A Can – Classics (2002) FLAC/01 – David Lang – Cheating, Lying, Stealing.flacPre-gap length : 00:02:00Track gain : 2.72 dBPeak : 0.902374CRC32 hash (test run) : F3EEEFFCCRC32 hash : F3EEEFFCCRC32 hash (skip zero) : 24BACC44AccurateRip v1 signature : 778CE56EAccurateRip v2 signature : 25CE0E49 (4D096781 w/correction)->Accurately ripped with different offset (v2, confidence 1/1, offset -6)StatisticsRead error : 0Jitter error (maybe fixed) : 0Retry sector count : 0Damaged sector count : 0Track 02Filename : /Volumes/MEM3/_Torrents/_Rip/Bang On A Can – Classics (2002) FLAC/02 – Julia Wolfe – Lick.flacTrack gain : 2.83 dBPeak : 0.966034CRC32 hash (test run) : E9B0E086CRC32 hash : E9B0E086CRC32 hash (skip zero) : 83623CFBAccurateRip v1 signature : 32D9B16DAccurateRip v2 signature : 48147688 (395C968A w/correction)->Accurately ripped with different offset (v2, confidence 1/1, offset -6)StatisticsRead error : 0Jitter error (maybe fixed) : 0Retry sector count : 0Damaged sector count : 0Track 03Filename : /Volumes/MEM3/_Torrents/_Rip/Bang On A Can – Classics (2002) FLAC/03 – Annie Gosfield – The Manufacture of Tangled Ivory.flacTrack gain : -0.02 dBPeak : 0.934357CRC32 hash (test run) : 8221F1A1CRC32 hash : 8221F1A1CRC32 hash (skip zero) : 0F7AA63EAccurateRip v1 signature : E459C046AccurateRip v2 signature : 42A1AED1 (39515225 w/correction)->Accurately ripped with different offset (v2, confidence 1/1, offset -6)StatisticsRead error : 0Jitter error (maybe fixed) : 0Retry sector count : 0Damaged sector count : 0Track 04Filename : /Volumes/MEM3/_Torrents/_Rip/Bang On A Can – Classics (2002) FLAC/04 – Evan Ziporyn – Tsmindao Ghmerto.flacTrack gain : 5.18 dBPeak : 0.402649CRC32 hash (test run) : C6E66B92CRC32 hash : C6E66B92CRC32 hash (skip zero) : 938C74DCAccurateRip v1 signature : 92E90BAFAccurateRip v2 signature : E10EF050 (0B8A9A61 w/correction)->Accurately ripped with different offset (v2, confidence 1/1, offset -6)StatisticsRead error : 0Jitter error (maybe fixed) : 0Retry sector count : 0Damaged sector count : 0Track 05Filename : /Volumes/MEM3/_Torrents/_Rip/Bang On A Can – Classics (2002) FLAC/05 – Lois V Vierk – Red Shift.flacTrack gain : -1.03 dBPeak : 0.966095CRC32 hash (test run) : 85818029CRC32 hash : 85818029CRC32 hash (skip zero) : 6FCD5ADFAccurateRip v1 signature : 269B2FBBAccurateRip v2 signature : 92693FDC (33009F9A w/correction)->Accurately ripped with different offset (v2, confidence 1/1, offset -6)StatisticsRead error : 0Jitter error (maybe fixed) : 0Retry sector count : 0Damaged sector count : 0Track 06Filename : /Volumes/MEM3/_Torrents/_Rip/Bang On A Can – Classics (2002) FLAC/06 – Nick Didkovsky – Amalia’s Secret.flacTrack gain : 2.36 dBPeak : 0.996460CRC32 hash (test run) : 0ED76A7ECRC32 hash : 0ED76A7ECRC32 hash (skip zero) : 9003BE7CAccurateRip v1 signature : 1CB3B8B2AccurateRip v2 signature : 4FA599C9 (1A953B48 w/correction)->Accurately ripped with different offset (v2, confidence 1/1, offset -6)StatisticsRead error : 0Jitter error (maybe fixed) : 0Retry sector count : 0Damaged sector count : 0Track 07Filename : /Volumes/MEM3/_Torrents/_Rip/Bang On A Can – Classics (2002) FLAC/07 – Michael Gordon – Industry.flacTrack gain : -4.20 dBPeak : 0.966125CRC32 hash (test run) : 14DBF9ECCRC32 hash : 14DBF9ECCRC32 hash (skip zero) : D56BA7A2AccurateRip v1 signature : 750FF036AccurateRip v2 signature : BCC9E40C (A2C3E844 w/correction)->Accurately ripped with different offset (v2, confidence 1/1, offset -6)StatisticsRead error : 0Jitter error (maybe fixed) : 0Retry sector count : 0Damaged sector count : 0No errors occurredEnd of status report––-BEGIN XLD SIGNATURE––-JJvZFoER0_VZLP_emMh76EzPUrOsbf5MfdWtnEhBPN7H_e1WzIue99Hpc3lfosQinr3_Z5lT1fkK94a4AEJn1.55NsqcT46G0zZj.wy––-END XLD SIGNATURE––-

See the rest here: 
Bang On A Can – Classics (2002)